<?xml version="1.0" standalone="no"?>
<!DOCTYPE svg PUBLIC "-//W3C//DTD SVG 1.1//EN" "http://www.w3.org/Graphics/SVG/1.1/DTD/svg11.dtd" >
<svg xmlns="http://www.w3.org/2000/svg">
<metadata>Generated by IcoMoon</metadata>
<defs>
<font id="icomoon" horiz-adv-x="1024">
<font-face units-per-em="1024" ascent="960" descent="-64" />
<missing-glyph horiz-adv-x="1024" />
<glyph unicode="&#x20;" d="" horiz-adv-x="512" />
<glyph unicode="&#xe600;" d="M0 128v109.714q0 22.857 16 38.857t38.857 16h182.857q22.857 0 38.857-16t16-38.857v-109.714q0-22.857-16-38.857t-38.857-16h-182.857q-22.857 0-38.857 16t-16 38.857zM0 420.571v109.714q0 22.857 16 38.857t38.857 16h182.857q22.857 0 38.857-16t16-38.857v-109.714q0-22.857-16-38.857t-38.857-16h-182.857q-22.857 0-38.857 16t-16 38.857zM0 713.143v109.714q0 22.857 16 38.857t38.857 16h182.857q22.857 0 38.857-16t16-38.857v-109.714q0-22.857-16-38.857t-38.857-16h-182.857q-22.857 0-38.857 16t-16 38.857zM365.714 128v109.714q0 22.857 16 38.857t38.857 16h548.571q22.857 0 38.857-16t16-38.857v-109.714q0-22.857-16-38.857t-38.857-16h-548.571q-22.857 0-38.857 16t-16 38.857zM365.714 420.571v109.714q0 22.857 16 38.857t38.857 16h548.571q22.857 0 38.857-16t16-38.857v-109.714q0-22.857-16-38.857t-38.857-16h-548.571q-22.857 0-38.857 16t-16 38.857zM365.714 713.143v109.714q0 22.857 16 38.857t38.857 16h548.571q22.857 0 38.857-16t16-38.857v-109.714q0-22.857-16-38.857t-38.857-16h-548.571q-22.857 0-38.857 16t-16 38.857z" />
<glyph unicode="&#xe601;" d="M896 192q0-5-0.5-14.5t-3.5-36-8.5-50.5-17.5-53.5-28-51-42.5-36-59.5-14.5q-63 0-118 20t-95.5 48-79 56-86.5 48-101 20q-77 0-102.5 5t-25.5 27q0 48 54.5 131.5t122 159.5 151.5 171.5 120 145.5q-42-21-60.5-29.5t-59.5-21.5-72-13q-52 0-90 40t-38 88q0 26 6.5 49t16 36.5 19 24 15.5 14.5l7 4q1-3 3.5-7t11.5-15 19.5-19.5 27-15.5 34.5-7q76 0 140 10t97 22 64 22 51 10q23 0 37-5t19.5-16 6.5-19 1-24q0-35-55.5-112.5t-126-155-155-175-125.5-155.5q57-20 140-64.5t148.5-75 109.5-30.5q79 0 124 58z" />
<glyph unicode="&#xe602;" d="M986 256h-218v635q117-68 186.5-185.5t69.5-257.5q0-99-38-192zM704 556l-371 371q88 33 179 33 99 0 192-38v-366zM452 720l-428-428q-24 76-24 156 0 144 74 265t197 187zM256 435v-430q-138 80-206 224zM320 192h635q-68-117-185.5-186.5t-257.5-69.5q-99 0-192 38v218z" />
<glyph unicode="&#xe603;" d="M896-64h-768q-53 0-90.5 37.5t-37.5 90.5v768q0 53 37.5 90.5t90.5 37.5h768q53 0 90.5-37.5t37.5-90.5v-768q0-53-37.5-90.5t-90.5-37.5zM128 0h768q27 0 45.5 18.5t18.5 45.5v283l-320-91-160 256h160l68-101 219 58q-155 107-351 107-94 0-183-27l183-325-512-122v-38q0-27 19-45.5t45-18.5zM366 319l-96 181q-48-24-78.5-47.5t-43.5-47.5-16.5-41.5-3.5-43.5q0-29 2-63zM896 896h-768q-26 0-45-18.5t-19-45.5v-271q70 45 136 71l-72 136h128l61-97q128 33 259 33 203 0 384-76v204q0 27-18.5 45.5t-45.5 18.5z" />
<glyph unicode="&#xe604;" d="M912 635l-255-254-257 255q-15 15-36.5 15t-36.5-15-15-36.5 15-36.5l367-363q46-46 46-110t-46-109-110.5-45-109.5 45l-368 364q-69 69-94 162t0 185.5 94.5 162 163.5 94 187.5 0 163.5-94.5l36-36 47 46q21 21 57 29.5t78.5-2 72.5-40.5q47-47 47.5-109t-47.5-107zM672 640l-128 128q-62 62-130 84t-129 4.5-113-69.5q-50-50-68-112.5t-3-122 59-104.5l384-384q32-32 64 0t0 64l-371 372q-46 46-46 111t46 112q30 29 71.5 40t79 3.5 60.5-30.5l160-160q15-15 32-15t32 15q32 32 0 64z" />
<glyph unicode="&#xe605;" d="M800 704q-40 0-68-28t-28-68q0-38 42.5-67t85.5-29q80 0 136-56t56-136-56-136-136-56q-49 0-91 26.5t-69 69.5q-49 129-96 224-22 43-46 83t-37 59l-13 18q-9 29-60 62.5t-100 33.5q-106 0-181-75t-75-181 75-181 181-75 181 75l45-45q-44-45-102.5-69.5t-123.5-24.5q-87 0-160.5 43t-116.5 116.5-43 160.5 43 160.5 116.5 116.5 160.5 43q65 0 132-39.5t92-88.5q46-60 96-160 20-41 44-97t38-91l14-36q40-64 96-64 53 0 90.5 37.5t37.5 90.5-37.5 90.5-90.5 37.5q-69 0-130.5 48t-61.5 112q0 66 47 113t113 47q69 0 114.5-39t45.5-89h-64q-11 26-39 45t-57 19z" />
<glyph unicode="&#xe606;" d="M1024 448q0-111-26-187t-86-128.5-158-76.5-242-24-242 24-158 76.5-86 128.5-26 187q0 149 78 231-14 102-14 153 0 13 9.5 22.5t22.5 9.5q12 0 84-33t98-52q98 21 234 21 118 0 209-16 31 20 97.5 50t77.5 30q13 0 22.5-9.5t9.5-22.5q0-35-10-127 106-83 106-257zM512 608q-20 0-58 1-46 2-88-0.5t-78.5-7.5-66-22-50-44-32-73-11.5-110q0-122 97.5-189t286.5-67 286.5 67 97.5 189q0 64-11.5 110t-32 73-50 44-66 22-78.5 7.5-88 0.5q-38-1-58-1zM704 288q-27 0-45.5 28t-18.5 68 19 68 45 28 45-28 19-68-18.5-68-45.5-28zM544 160h-64q-13 0-22.5 9.5t-9.5 22.5 9.5 22.5 22.5 9.5h64q13 0 22.5-9.5t9.5-22.5-9.5-22.5-22.5-9.5zM320.5 288q-26.5 0-45.5 28t-19 68 19 68 45.5 28 45-28 18.5-68-18.5-68-45-28z" />
<glyph unicode="&#xe607;" d="M896-64h-768q-53 0-90.5 37.5t-37.5 90.5v768q0 53 37.5 90.5t90.5 37.5h768q53 0 90.5-37.5t37.5-90.5v-768q0-53-37.5-90.5t-90.5-37.5zM864 192l-288 576q-23 64-64 64-6 0-12.5-2t-11-4.5-9.5-8-8-8.5-7-10.5-5.5-10.5l-5.5-11t-5-9l-288-576q-1-2-16.5-27t-15.5-37q0-26 19-45t45-19h256v149l-119 118q-9 9-9 22t9 22 22 9 22-9l75-76v53q0 13 9.5 22.5t22.5 9.5h53l54 55q9 9 22 9t22-9 9-22-9-22l-55-54v-106l75 76q9 9 22 9t22-9 9-22-9-22l-119-118v-85h256q26 0 45 19t19 45q0 9-6 21.5t-15 26z" />
<glyph unicode="&#xe608;" d="M960-64h-896q-26 0-45 19t-19 45v128q0 26 19 45t45.5 19 45-19 18.5-45v-64h768v64q0 26 18.5 45t45 19 45.5-19 19-45v-128q0-27-19-45.5t-45-18.5zM887 416q-13-23-38.5-30t-48.5 6.5-30 39.5 7 49l30 107-111 275q-7 12-11.5 28.5t-5.5 31.5 5 26 20 11q30 0 44.5-5.5t26.5-26.5l79-176 51 176q13 23 38.5 29.5t48.5-6.5 30-39-7-49zM576 512q-27 0-45.5 18.5t-18.5 45.5v256q0 26-18.5 45t-45.5 19-45.5-19-18.5-45v-256q0-27-18.5-45.5t-45.5-18.5-45.5 18.5-18.5 45.5v256q0 26-18.5 45t-45.5 19-45.5-19-18.5-45v-256q0-27-18.5-45.5t-45.5-18.5-45.5 18.5-18.5 45.5v320q0 26 19 45t45 19q27 0 46-19 40 19 82 19 73 0 128-50 55 50 128 50 79 0 135.5-56.5t56.5-135.5v-192q0-27-18.5-45.5t-45.5-18.5z" />
<glyph unicode="&#xe609;" d="M704-64h-384q-87 0-160.5 43t-116.5 116.5-43 160.5v384q0 87 43 160.5t116.5 116.5 160.5 43h192q87 0 160.5-43t116.5-116.5 43-160.5q0-26 18.5-45t45.5-19h64q26 0 45-18.5t19-45.5v-256q0-87-43-160.5t-116.5-116.5-160.5-43zM512 704h-192q-27 0-45.5-18.5t-18.5-45 18.5-45.5 45.5-19h192q27 0 45.5 19t18.5 45.5-19 45-45 18.5zM704 320h-384q-27 0-45.5-18.5t-18.5-45 18.5-45.5 45.5-19h384q26 0 45 19t19 45.5-19 45-45 18.5z" />
<glyph unicode="&#xe60a;" d="M480-64q-46 0-84 25.5t-64 71.5-45.5 99.5-33.5 119-23.5 120.5-19.5 114-18 90q-2 7-5.5 27t-7 35-10 31.5-17 25.5-24.5 9q-15 0-45-19t-51-45l-32 64q144 256 288 256 50 0 82-42.5t46-117.5q8-42 22.5-126.5t25-141.5 24.5-118.5 28-93.5 28-32q30 0 76.5 58t81 135 34.5 127q0 55-22.5 75.5t-64.5 20.5q-41 0-73-28 1 70 30 135t81 107 113 42q224 0 224-256 0-74-40.5-177.5t-105-204-137-189-144-143-117.5-54.5z" />
<glyph unicode="&#xe60b;" d="M960-64h-896q-27 0-45.5 19t-18.5 45v256q0 27 18.5 45.5t45.5 18.5h128q20 0 38.5-8.5t25.5-23.5l64-192q8-20 24-26t45-6h249q29 0 43.5 6t22.5 26q51 154 64 192 13 32 64 32h128q26 0 45-18.5t19-45.5v-256q0-26-18.5-45t-45.5-19zM656 179q-9-21-32.5-36t-49.5-15h-121q-26 0-50 15t-33 36l-71 205h-235v512q0 27 18.5 45.5t45.5 18.5h768q27 0 45.5-18.5t18.5-45.5v-512h-235zM224 512h128q13 0 22.5 9.5t9.5 22.5-9.5 22.5-22.5 9.5h-128q-13 0-22.5-9.5t-9.5-22.5 9.5-22.5 22.5-9.5zM480 768h-256q-13 0-22.5-9.5t-9.5-22.5 9.5-22.5 22.5-9.5h256q13 0 22.5 9.5t9.5 22.5-9.5 22.5-22.5 9.5zM800 768h-192q-13 0-22.5-9.5t-9.5-22.5 9.5-22.5 22.5-9.5h192q13 0 22.5 9.5t9.5 22.5-9.5 22.5-22.5 9.5zM832 544q0 13-9.5 22.5t-22.5 9.5h-320q-13 0-22.5-9.5t-9.5-22.5 9.5-22.5 22.5-9.5h320q13 0 22.5 9.5t9.5 22.5z" />
<glyph unicode="&#xe60c;" d="M0 475.428q0 81.714 31.714 156.286t85.714 128.571 128.571 85.714 156.286 31.714 156.286-31.714 128.571-85.714 85.714-128.571 31.714-156.286q0-125.714-70.857-228l196-196q21.143-21.143 21.143-51.429 0-29.714-21.714-51.429t-51.429-21.714q-30.857 0-51.429 21.714l-196 195.429q-102.286-70.857-228-70.857-81.714 0-156.286 31.714t-128.571 85.714-85.714 128.571-31.714 156.286zM146.286 475.428q0-105.714 75.143-180.857t180.857-75.143 180.857 75.143 75.143 180.857-75.143 180.857-180.857 75.143-180.857-75.143-75.143-180.857z" horiz-adv-x="951" />
<glyph unicode="&#xe60d;" d="M0 91.428v621.714q0 37.714 26.857 64.571t64.571 26.857h841.143q37.714 0 64.571-26.857t26.857-64.571v-621.714q0-37.714-26.857-64.571t-64.571-26.857h-841.143q-37.714 0-64.571 26.857t-26.857 64.571zM73.143 91.428q0-7.429 5.429-12.857t12.857-5.429h841.143q7.429 0 12.857 5.429t5.429 12.857v438.857q-18.286-20.571-39.429-37.714-153.143-117.714-243.429-193.143-29.143-24.571-47.429-38.286t-49.429-27.714-58.571-14h-1.143q-27.429 0-58.571 14t-49.429 27.714-47.429 38.286q-90.286 75.429-243.429 193.143-21.143 17.143-39.429 37.714v-438.857zM73.143 713.143q0-96 84-162.286 110.286-86.857 229.143-181.143 3.429-2.857 20-16.857t26.286-21.429 25.429-18 28.857-15.714 24.571-5.143h1.143q11.429 0 24.571 5.143t28.857 15.714 25.429 18 26.286 21.429 20 16.857q118.857 94.286 229.143 181.143 30.857 24.571 57.429 66t26.571 75.143v14t-0.286 7.429-1.714 7.143-3.143 5.143-5.143 4.286-8 1.429h-841.143q-7.429 0-12.857-5.429t-5.429-12.857z" />
<glyph unicode="&#xe60e;" d="M0 148q0 30.286 2 59.143t8 62.286 15.143 62 24.571 55.714 35.429 46.286 48.857 30.571 63.714 11.429q5.143 0 24-12.286t42.571-27.429 61.714-27.429 76.286-12.286 76.286 12.286 61.714 27.429 42.571 27.429 24 12.286q34.857 0 63.714-11.429t48.857-30.571 35.429-46.286 24.571-55.714 15.143-62 8-62.286 2-59.143q0-68.571-41.714-108.286t-110.857-39.714h-499.429q-69.143 0-110.857 39.714t-41.714 108.286zM182.857 658.286q0 90.857 64.286 155.143t155.143 64.286 155.143-64.286 64.286-155.143-64.286-155.143-155.143-64.286-155.143 64.286-64.286 155.143z" horiz-adv-x="805" />
<glyph unicode="&#xe60f;" d="M0 128v109.714q0 22.857 16 38.857t38.857 16h182.857q22.857 0 38.857-16t16-38.857v-109.714q0-22.857-16-38.857t-38.857-16h-182.857q-22.857 0-38.857 16t-16 38.857zM0 420.571v109.714q0 22.857 16 38.857t38.857 16h182.857q22.857 0 38.857-16t16-38.857v-109.714q0-22.857-16-38.857t-38.857-16h-182.857q-22.857 0-38.857 16t-16 38.857zM0 713.143v109.714q0 22.857 16 38.857t38.857 16h182.857q22.857 0 38.857-16t16-38.857v-109.714q0-22.857-16-38.857t-38.857-16h-182.857q-22.857 0-38.857 16t-16 38.857zM365.714 128v109.714q0 22.857 16 38.857t38.857 16h182.857q22.857 0 38.857-16t16-38.857v-109.714q0-22.857-16-38.857t-38.857-16h-182.857q-22.857 0-38.857 16t-16 38.857zM365.714 420.571v109.714q0 22.857 16 38.857t38.857 16h182.857q22.857 0 38.857-16t16-38.857v-109.714q0-22.857-16-38.857t-38.857-16h-182.857q-22.857 0-38.857 16t-16 38.857zM365.714 713.143v109.714q0 22.857 16 38.857t38.857 16h182.857q22.857 0 38.857-16t16-38.857v-109.714q0-22.857-16-38.857t-38.857-16h-182.857q-22.857 0-38.857 16t-16 38.857zM731.429 128v109.714q0 22.857 16 38.857t38.857 16h182.857q22.857 0 38.857-16t16-38.857v-109.714q0-22.857-16-38.857t-38.857-16h-182.857q-22.857 0-38.857 16t-16 38.857zM731.429 420.571v109.714q0 22.857 16 38.857t38.857 16h182.857q22.857 0 38.857-16t16-38.857v-109.714q0-22.857-16-38.857t-38.857-16h-182.857q-22.857 0-38.857 16t-16 38.857zM731.429 713.143v109.714q0 22.857 16 38.857t38.857 16h182.857q22.857 0 38.857-16t16-38.857v-109.714q0-22.857-16-38.857t-38.857-16h-182.857q-22.857 0-38.857 16t-16 38.857z" />
<glyph unicode="&#xe610;" d="M69.143 420.571q0 22.857 16 38.857l77.714 77.714q16 16 38.857 16t38.857-16l168-168.571 374.857 375.429q16 16 38.857 16t38.857-16l77.714-77.714q16-16 16-38.857t-16-38.857l-491.429-491.429q-16-16-38.857-16t-38.857 16l-284.571 284.571q-16 16-16 38.857z" />
<glyph unicode="&#xe611;" d="M62.857 195.428q0 22.857 16 38.857l168 168-168 168q-16 16-16 38.857t16 38.857l77.714 77.714q16 16 38.857 16t38.857-16l168-168 168 168q16 16 38.857 16t38.857-16l77.714-77.714q16-16 16-38.857t-16-38.857l-168-168 168-168q16-16 16-38.857t-16-38.857l-77.714-77.714q-16-16-38.857-16t-38.857 16l-168 168-168-168q-16-16-38.857-16t-38.857 16l-77.714 77.714q-16 16-16 38.857z" horiz-adv-x="805" />
<glyph unicode="&#xe612;" d="M0 475.428q0 81.714 31.714 156.286t85.714 128.571 128.571 85.714 156.286 31.714 156.286-31.714 128.571-85.714 85.714-128.571 31.714-156.286q0-125.714-70.857-228l196-196q21.143-21.143 21.143-51.429t-21.429-51.714-51.714-21.429q-30.857 0-51.429 21.714l-196 195.429q-102.286-70.857-228-70.857-81.714 0-156.286 31.714t-128.571 85.714-85.714 128.571-31.714 156.286zM146.286 475.428q0-105.714 75.143-180.857t180.857-75.143 180.857 75.143 75.143 180.857-75.143 180.857-180.857 75.143-180.857-75.143-75.143-180.857zM219.429 457.143v36.571q0 7.429 5.429 12.857t12.857 5.429h128v128q0 7.429 5.429 12.857t12.857 5.429h36.571q7.429 0 12.857-5.429t5.429-12.857v-128h128q7.429 0 12.857-5.429t5.429-12.857v-36.571q0-7.429-5.429-12.857t-12.857-5.429h-128v-128q0-7.429-5.429-12.857t-12.857-5.429h-36.571q-7.429 0-12.857 5.429t-5.429 12.857v128h-128q-7.429 0-12.857 5.429t-5.429 12.857z" horiz-adv-x="951" />
<glyph unicode="&#xe613;" d="M14.857 436.857q0.571 7.714 6.286 12.286l410.857 342.286q18.286 14.857 43.429 14.857t43.429-14.857l139.429-116.571v111.429q0 8 5.143 13.143t13.143 5.143h109.714q8 0 13.143-5.143t5.143-13.143v-233.143l125.143-104q5.714-4.571 6.286-12.286t-4-13.429l-35.429-42.286q-4.571-5.143-12-6.286h-1.714q-7.429 0-12 4l-395.429 329.714-395.429-329.714q-6.857-4.571-13.714-4-7.429 1.143-12 6.286l-35.429 42.286q-4.571 5.714-4 13.429zM146.286 109.714v274.286q0 0.571 0.286 1.714t0.286 1.714l328.571 270.857 328.571-270.857q0.571-1.143 0.571-3.429v-274.286q0-14.857-10.857-25.714t-25.714-10.857h-219.429v219.429h-146.286v-219.429h-219.429q-14.857 0-25.714 10.857t-10.857 25.714z" horiz-adv-x="951" />
<glyph unicode="&#xe614;" d="M0 438.857q0 119.429 58.857 220.286t159.714 159.714 220.286 58.857 220.286-58.857 159.714-159.714 58.857-220.286-58.857-220.286-159.714-159.714-220.286-58.857-220.286 58.857-159.714 159.714-58.857 220.286zM128 438.857q0-84.571 41.714-156t113.143-113.143 156-41.714 156 41.714 113.143 113.143 41.714 156-41.714 156-113.143 113.143-156 41.714-156-41.714-113.143-113.143-41.714-156zM292.571 384v36.571q0 8 5.143 13.143t13.143 5.143h128v201.143q0 8 5.143 13.143t13.143 5.143h36.571q8 0 13.143-5.143t5.143-13.143v-256q0-8-5.143-13.143t-13.143-5.143h-182.857q-8 0-13.143 5.143t-5.143 13.143z" />
<glyph unicode="&#xe615;" d="M0 128v182.857q0 22.857 16 38.857t38.857 16h265.714l77.143-77.714q33.143-32 77.714-32t77.714 32l77.714 77.714h265.143q22.857 0 38.857-16t16-38.857v-182.857q0-22.857-16-38.857t-38.857-16h-841.143q-22.857 0-38.857 16t-16 38.857zM185.714 636q9.714 22.286 33.714 22.286h146.286v256q0 14.857 10.857 25.714t25.714 10.857h146.286q14.857 0 25.714-10.857t10.857-25.714v-256h146.286q24 0 33.714-22.286 9.714-23.429-8-40l-256-256q-10.286-10.857-25.714-10.857t-25.714 10.857l-256 256q-17.714 16.571-8 40zM658.286 182.857q0-14.857 10.857-25.714t25.714-10.857 25.714 10.857 10.857 25.714-10.857 25.714-25.714 10.857-25.714-10.857-10.857-25.714zM804.571 182.857q0-14.857 10.857-25.714t25.714-10.857 25.714 10.857 10.857 25.714-10.857 25.714-25.714 10.857-25.714-10.857-10.857-25.714z" horiz-adv-x="951" />
<glyph unicode="&#xe616;" d="M0 566.857v237.714q0 29.714 21.714 51.429t51.429 21.714h237.714q30.286 0 66.857-15.143t58.286-36.857l408.571-408q21.143-22.286 21.143-52 0-30.286-21.143-51.429l-280.571-281.143q-22.286-21.143-52-21.143-30.286 0-51.429 21.143l-408.571 409.143q-21.714 21.143-36.857 57.714t-15.143 66.857zM109.714 694.857q0-30.286 21.429-51.714t51.714-21.429 51.714 21.429 21.429 51.714-21.429 51.714-51.714 21.429-51.714-21.429-21.429-51.714z" />
<glyph unicode="&#xe617;" d="M0 566.857v237.714q0 29.714 21.714 51.429t51.429 21.714h237.714q30.286 0 66.857-15.143t58.286-36.857l408.571-408q21.143-22.286 21.143-52 0-30.286-21.143-51.429l-280.571-281.143q-22.286-21.143-52-21.143-30.286 0-51.429 21.143l-408.571 409.143q-21.714 21.143-36.857 57.714t-15.143 66.857zM109.714 694.857q0-30.286 21.429-51.714t51.714-21.429 51.714 21.429 21.429 51.714-21.429 51.714-51.714 21.429-51.714-21.429-21.429-51.714zM402.286 877.714h128q30.286 0 66.857-15.143t58.286-36.857l408.571-408q21.143-22.286 21.143-52 0-30.286-21.143-51.429l-280.571-281.143q-22.286-21.143-52-21.143-20.571 0-33.714 8t-30.286 25.714l268.571 268.571q21.143 21.143 21.143 51.429 0 29.714-21.143 52l-408.571 408q-21.714 21.714-58.286 36.857t-66.857 15.143z" horiz-adv-x="1097" />
<glyph unicode="&#xe618;" d="M0 91.428v694.857q0 37.714 26.857 64.571t64.571 26.857h914.286q37.714 0 64.571-26.857t26.857-64.571v-694.857q0-37.714-26.857-64.571t-64.571-26.857h-914.286q-37.714 0-64.571 26.857t-26.857 64.571zM73.143 91.428q0-7.429 5.429-12.857t12.857-5.429h914.286q7.429 0 12.857 5.429t5.429 12.857v694.857q0 7.429-5.429 12.857t-12.857 5.429h-914.286q-7.429 0-12.857-5.429t-5.429-12.857v-694.857zM146.286 146.286v109.714l182.857 182.857 91.429-91.429 292.571 292.571 237.714-237.714v-256h-804.571zM146.286 621.714q0 45.714 32 77.714t77.714 32 77.714-32 32-77.714-32-77.714-77.714-32-77.714 32-32 77.714z" horiz-adv-x="1097" />
<glyph unicode="&#xe619;" d="M0 585.143q0 121.143 85.714 206.857t206.857 85.714 206.857-85.714 85.714-206.857q0-62.286-18.857-102.286l-208-442.286q-9.143-18.857-27.143-29.714t-38.571-10.857-38.571 10.857-26.571 29.714l-208.571 442.286q-18.857 40-18.857 102.286zM146.286 585.143q0-60.571 42.857-103.429t103.429-42.857 103.429 42.857 42.857 103.429-42.857 103.429-103.429 42.857-103.429-42.857-42.857-103.429z" horiz-adv-x="585" />
<glyph unicode="&#xe61a;" d="M88 475.428q0 14.857 10.857 25.714l424 424q10.857 10.857 25.714 10.857t25.714-10.857l94.857-94.857q10.857-10.857 10.857-25.714t-10.857-25.714l-303.429-303.429 303.429-303.429q10.857-10.857 10.857-25.714t-10.857-25.714l-94.857-94.857q-10.857-10.857-25.714-10.857t-25.714 10.857l-424 424q-10.857 10.857-10.857 25.714z" horiz-adv-x="731" />
<glyph unicode="&#xe61b;" d="M51.429 146.286q0 14.857 10.857 25.714l303.429 303.429-303.429 303.429q-10.857 10.857-10.857 25.714t10.857 25.714l94.857 94.857q10.857 10.857 25.714 10.857t25.714-10.857l424-424q10.857-10.857 10.857-25.714t-10.857-25.714l-424-424q-10.857-10.857-25.714-10.857t-25.714 10.857l-94.857 94.857q-10.857 10.857-10.857 25.714z" horiz-adv-x="731" />
<glyph unicode="&#xe61c;" d="M0 0v731.429q0 29.714 21.714 51.429t51.429 21.714h73.143v54.857q0 37.714 26.857 64.571t64.571 26.857h36.571q37.714 0 64.571-26.857t26.857-64.571v-54.857h219.429v54.857q0 37.714 26.857 64.571t64.571 26.857h36.571q37.714 0 64.571-26.857t26.857-64.571v-54.857h73.143q29.714 0 51.429-21.714t21.714-51.429v-731.429q0-29.714-21.714-51.429t-51.429-21.714h-804.571q-29.714 0-51.429 21.714t-21.714 51.429zM73.143 0h164.571v164.571h-164.571v-164.571zM73.143 201.143h164.571v182.857h-164.571v-182.857zM73.143 420.571h164.571v164.571h-164.571v-164.571zM219.429 694.857q0-7.429 5.429-12.857t12.857-5.429h36.571q7.429 0 12.857 5.429t5.429 12.857v164.571q0 7.429-5.429 12.857t-12.857 5.429h-36.571q-7.429 0-12.857-5.429t-5.429-12.857v-164.571zM274.286 0h182.857v164.571h-182.857v-164.571zM274.286 201.143h182.857v182.857h-182.857v-182.857zM274.286 420.571h182.857v164.571h-182.857v-164.571zM493.714 0h182.857v164.571h-182.857v-164.571zM493.714 201.143h182.857v182.857h-182.857v-182.857zM493.714 420.571h182.857v164.571h-182.857v-164.571zM658.286 694.857q0-7.429 5.429-12.857t12.857-5.429h36.571q7.429 0 12.857 5.429t5.429 12.857v164.571q0 7.429-5.429 12.857t-12.857 5.429h-36.571q-7.429 0-12.857-5.429t-5.429-12.857v-164.571zM713.143 0h164.571v164.571h-164.571v-164.571zM713.143 201.143h164.571v182.857h-164.571v-182.857zM713.143 420.571h164.571v164.571h-164.571v-164.571z" horiz-adv-x="951" />
<glyph unicode="&#xe61d;" d="M0 438.857q0 74.286 40.571 142t109.143 116.857 163.429 78 198.857 28.857q139.429 0 257.143-48.857t186.286-133.143 68.571-183.714-68.571-183.714-186.286-133.143-257.143-48.857q-40 0-82.857 4.571-113.143-100-262.857-138.286-28-8-65.143-12.571-9.714-1.143-17.429 5.143t-10 16.571v0.571q-1.714 2.286-0.286 6.857t1.143 5.714 2.571 5.429l3.429 5.143t4 4.857 4.571 5.143q4 4.571 17.714 19.714t19.714 21.714 17.714 22.571 18.571 29.143 15.429 33.714 14.857 43.429q-89.714 50.857-141.429 125.714t-51.714 160.571z" />
<glyph unicode="&#xe61e;" d="M51.429 216.286q0 15.143 10.857 26l424 423.429q10.857 10.857 25.714 10.857t25.714-10.857l424-423.429q10.857-10.857 10.857-26t-10.857-26l-94.857-94.286q-10.857-10.857-25.714-10.857t-25.714 10.857l-303.429 303.429-303.429-303.429q-10.857-10.857-25.714-10.857t-25.714 10.857l-94.857 94.286q-10.857 10.857-10.857 26z" />
<glyph unicode="&#xe61f;" d="M0 768q0 14.857 10.857 25.714t25.714 10.857h146.286q9.143 0 16.286-3.714t11.429-8.857 7.429-14 4.286-15.143 3.143-16.857 2.571-14.571h686.286q14.857 0 25.714-10.857t10.857-25.714v-292.571q0-13.714-9.143-24.286t-23.429-12.286l-596.571-69.714q0.571-4 2.571-12.286t3.429-15.143 1.429-12.571q0-9.143-13.714-36.571h525.714q14.857 0 25.714-10.857t10.857-25.714-10.857-25.714-25.714-10.857h-585.143q-14.857 0-25.714 10.857t-10.857 25.714q0 8 6.286 22.571t16.857 34 11.714 21.714l-101.143 470.286h-116.571q-14.857 0-25.714 10.857t-10.857 25.714zM219.429 73.143q0 30.286 21.429 51.714t51.714 21.429 51.714-21.429 21.429-51.714-21.429-51.714-51.714-21.429-51.714 21.429-21.429 51.714zM731.429 73.143q0 30.286 21.429 51.714t51.714 21.429 51.714-21.429 21.429-51.714-21.429-51.714-51.714-21.429-51.714 21.429-21.429 51.714z" horiz-adv-x="951" />
<glyph unicode="&#xe620;" d="M0 684q0 52.571 29.143 106.286 32 57.714 60.571 69.714 14.286 6.286 39.143 12t40.286 5.714q8 0 12-1.714 10.286-3.429 30.286-43.429 6.286-10.857 17.143-30.857t20-36.286 17.714-30.571q1.714-2.286 10-14.286t12.286-20.286 4-16.286q0-11.429-16.286-28.571t-35.429-31.429-35.429-30.286-16.286-26.286q0-5.143 2.857-12.857t4.857-11.714 8-13.714 6.571-10.857q43.429-78.286 99.429-134.286t134.286-99.429q1.143-0.571 10.857-6.571t13.714-8 11.714-4.857 12.857-2.857q10.286 0 26.286 16.286t30.286 35.429 31.429 35.429 28.571 16.286q8 0 16.286-4t20.286-12.286 14.286-10q14.286-8.571 30.571-17.714t36.286-20 30.857-17.143q40-20 43.429-30.286 1.714-4 1.714-12 0-15.429-5.714-40.286t-12-39.143q-12-28.571-69.714-60.571-53.714-29.143-106.286-29.143-15.429 0-30 2t-32.857 7.143-27.143 8.286-31.714 11.714-28 10.286q-56 20-100 47.429-73.143 45.143-151.143 123.143t-123.143 151.143q-27.429 44-47.429 100-1.714 5.143-10.286 28t-11.714 31.714-8.286 27.143-7.143 32.857-2 30z" horiz-adv-x="805" />
<glyph unicode="&#xe621;" d="M25.143 156q20-2.286 44.571-2.286 128.571 0 229.143 78.857-60 1.143-107.429 36.857t-65.143 91.143q18.857-2.857 34.857-2.857 24.571 0 48.571 6.286-64 13.143-106 63.714t-42 117.429v2.286q38.857-21.714 83.429-23.429-37.714 25.143-60 65.714t-22.286 88q0 50.286 25.143 93.143 69.143-85.143 168.286-136.286t212.286-56.857q-4.571 21.714-4.571 42.286 0 76.571 54 130.571t130.571 54q80 0 134.857-58.286 62.286 12 117.143 44.571-21.143-65.714-81.143-101.714 53.143 5.714 106.286 28.571-38.286-56-92.571-95.429 0.571-8 0.571-24 0-74.286-21.714-148.286t-66-142-105.429-120.286-147.429-83.429-184.571-31.143q-154.857 0-283.429 82.857z" horiz-adv-x="951" />
<glyph unicode="&#xe622;" d="M54.286 433.714v169.143h145.714v124.571q0 106.286 59.429 164.857t158.286 58.571q84 0 130.286-6.857v-150.857h-89.714q-49.143 0-66.286-20.571t-17.143-61.714v-108h167.429l-22.286-169.143h-145.143v-433.714h-174.857v433.714h-145.714z" horiz-adv-x="585" />
<glyph unicode="&#xe623;" d="M0 182.857q0 45.714 32 77.714t77.714 32 77.714-32 32-77.714-32-77.714-77.714-32-77.714 32-32 77.714zM0 471.428v77.143q0 16.571 12 26.857 9.714 9.714 24.571 9.714h2.857q91.429-7.429 174.857-46t148-103.714q65.143-64.571 103.714-148t46-174.857q1.143-16-9.714-27.429-10.286-12-26.857-12h-77.143q-14.286 0-24.571 9.429t-11.429 23.714q-12.571 130.857-105.429 223.714t-223.714 105.429q-14.286 1.143-23.714 11.429t-9.429 24.571zM0 759.428v81.714q0 16 11.429 26.286 10.286 10.286 25.143 10.286h1.714q149.714-7.429 286.571-68.571t243.143-168q106.857-106.286 168-243.143t68.571-286.571q1.143-15.429-10.286-26.857-10.286-11.429-26.286-11.429h-81.714q-14.857 0-25.429 10t-11.143 24.286q-6.857 122.857-57.714 233.429t-132.286 192-192 132.286-233.429 58.286q-14.286 0.571-24.286 11.143t-10 24.857z" horiz-adv-x="805" />
<glyph unicode="&#xe624;" d="M0 438.857q0 119.429 58.857 220.286t159.714 159.714 220.286 58.857 220.286-58.857 159.714-159.714 58.857-220.286-58.857-220.286-159.714-159.714-220.286-58.857-220.286 58.857-159.714 159.714-58.857 220.286zM129.143 632.571q4-4 6.857-4.571 2.286-0.571 2.857-5.143t1.429-6.286 6.571 1.714q5.143-4.571 1.714-10.857 0.571 0.571 25.143-15.429 10.857-9.714 12-12 1.714-6.286-5.714-10.286-0.571 1.143-5.143 5.143t-5.143 2.286q-1.714-2.857 0.286-10.571t6-7.143q-4 0-5.429-9.143t-1.429-20.286-0.571-13.429l1.143-0.571q-1.714-6.857 3.143-19.714t12.286-11.143q-7.429-1.714 11.429-24.571 3.429-4.571 4.571-5.143 1.714-1.143 6.857-4.286t8.571-5.714 5.714-6q2.286-2.857 5.714-12.857t8-13.429q-1.143-3.429 5.429-11.429t6-13.143q-0.571 0-1.429-0.571t-1.429-0.571q1.714-4 8.857-8t8.857-7.429q0.571-1.714 1.143-5.714t1.714-6.286 4.571-1.143q1.143 11.429-13.714 35.429-8.571 14.286-9.714 16.571-1.714 2.857-3.143 8.857t-2.571 8.286q1.143 0 3.429-0.857t4.857-2 4.286-2.286 1.143-1.714q-1.714-4 1.143-10t6.857-10.571 9.714-10.857 6.857-7.429q3.429-3.429 8-11.143t0-7.714q5.143 0 11.429-5.714t9.714-11.429q2.857-4.571 4.571-14.857t2.857-13.714q1.143-4 4.857-7.714t7.143-5.429l9.143-4.571t7.429-4q2.857-1.143 10.571-6t12.286-6.571q5.714-2.286 9.143-2.286t8.286 1.429 7.714 2q8.571 1.143 16.571-8.571t12-12q20.571-10.857 31.429-6.286-1.143-0.571 0.286-4.286t4.571-8.857 5.143-8.286 3.143-4.857q2.857-3.429 10.286-8.571t10.286-8.571q3.429 2.286 4 5.143-1.714-4.571 4-11.429t10.286-5.714q8 1.714 8 18.286-17.714-8.571-28 10.286 0 0.571-1.429 3.143t-2.286 4.857-1.429 4.857 0 4.286 2.857 1.714q5.143 0 5.714 2t-1.143 7.143-2.286 7.429q-0.571 4.571-6.286 11.429t-6.857 8.571q-2.857-5.143-9.143-4.571t-9.143 5.143q0-0.571-0.857-3.143t-0.857-3.714q-7.429 0-8.571 0.571 0.571 1.714 1.429 10t2 12.857q0.571 2.286 3.143 6.857t4.286 8.286 2.286 7.143-2.571 5.429-10 1.429q-10.857-0.571-14.857-11.429-0.571-1.714-1.714-6t-2.857-6.571-5.143-4q-4-1.714-13.714-1.143t-13.714 2.857q-7.429 4.571-12.857 16.571t-5.429 21.143q0 5.714 1.429 15.143t1.714 14.286-3.143 14q1.714 1.143 5.143 5.429t5.714 6q1.143 0.571 2.571 0.857t2.571 0 2.286 0.857 1.714 3.429q-0.571 0.571-2.286 1.714-1.714 1.714-2.286 1.714 4-1.714 16.286 0.857t15.714-0.857q8.571-6.286 12.571 1.143 0 0.571-1.429 5.429t-0.286 7.714q2.857-15.429 16.571-5.143 1.714-1.714 8.857-2.857t10-2.857q1.714-1.143 4-3.143t3.143-2.571 2.857 0.286 4.857 3.714q5.714-8 6.857-13.714 6.286-22.857 10.857-25.143 4-1.714 6.286-1.143t2.571 5.429 0 8-0.857 7.143l-0.571 4.571v10.286l-0.571 4.571q-8.571 1.714-10.571 6.857t0.857 10.571 8.571 10.571q0.571 0.571 4.571 2t8.857 3.714 7.143 4.571q12 10.857 8.571 20 4 0 6.286 5.143-0.571 0-2.857 1.714t-4.286 2.857-2.571 1.143q5.143 2.857 1.143 9.143 2.857 1.714 4.286 6.286t4.286 5.714q5.143-6.857 12-1.143 4 4.571 0.571 9.143 2.857 4 11.714 6t10.571 5.429q4-1.143 4.571 1.143t0.571 6.857 1.714 6.857q2.286 2.857 8.571 5.143t7.429 2.857l9.714 6.286q1.714 2.286 0 2.286 10.286-1.143 17.714 6.286 5.714 6.286-3.429 11.429 1.714 3.429-1.714 5.429t-8.571 3.143q1.714 0.571 6.571 0.286t6 0.857q8.571 5.714-4 9.143-9.714 2.857-24.571-6.857-1.143-0.571-5.429-5.429t-7.714-5.429q1.143 0 2.571 2.857t2.857 6.286 2 4q3.429 4 12.571 8.571 8 3.429 29.714 6.857 19.429 4.571 29.143-6.286-1.143 1.143 5.429 7.429t8.286 6.857q1.714 1.143 8.571 2.571t8.571 4.286l1.143 12.571q-6.857-0.571-10 4t-3.714 12q0-1.143-3.429-4.571 0 4-2.571 4.571t-6.571-0.571-5.143-0.571q-5.714 1.714-8.571 4.286t-4.571 9.429-2.286 8.571q-1.143 2.857-5.429 6t-5.429 6q-0.571 1.143-1.429 3.143t-1.714 3.714-2.286 3.143-3.143 1.429-4-2.857-4.286-5.714-2.571-2.857q-1.714 1.143-3.429 0.857t-2.571-0.571-2.571-1.714-2.857-2q-1.714-1.143-4.857-1.714t-4.857-1.143q8.571 2.857-0.571 6.286-5.714 2.286-9.143 1.714 5.143 2.286 4.286 6.857t-4.857 8h2.857q-0.571 2.286-4.857 4.857t-10 4.857-7.429 3.429q-4.571 2.857-19.429 5.429t-18.857 0.286q-2.857-3.429-2.571-6t2.286-8 2-7.143q0.571-3.429-3.143-7.429t-3.714-6.857q0-4 8-8.857t5.714-12.286q-1.714-4.571-9.143-9.143t-9.143-6.857q-2.857-4.571-0.857-10.571t6-9.429q1.143-1.143 0.857-2.286t-2-2.571-3.143-2.286-3.714-2l-1.714-1.143q-6.286-2.857-11.714 3.429t-7.714 14.857q-4 14.286-9.143 17.143-13.143 4.571-16.571-0.571-2.857 7.429-23.429 14.857-14.286 5.143-33.143 2.286 3.429 0.571 0 8.571-4 8.571-10.857 6.857 1.714 3.429 2.286 10t0.571 7.714q1.714 7.429 6.857 13.143 0.571 0.571 4 4.857t5.429 7.714 0.286 3.429q20-2.286 28.571 6.286 2.857 2.857 6.571 9.714t6 9.714q5.143 3.429 8 3.143t8.286-3.143 8.286-2.857q8-0.571 8.857 6.286t-4.286 11.429q6.857-0.571 1.714 9.714-2.857 4-4.571 5.143-6.857 2.286-15.429-2.857-4.571-2.286 1.143-4.571-0.571 0.571-5.429-6t-9.429-10-9.143 2.857q-0.571 0.571-3.143 7.714t-5.429 7.714q-4.571 0-9.143-8.571 1.714 4.571-6.286 8.571t-13.714 4.571q10.857 6.857-4.571 15.429-4 2.286-11.714 2.857t-11.143-2.286q-2.857-4-3.143-6.571t2.857-4.571 6-3.143 6.571-2.286 4.857-1.714q8-5.714 4.571-8-1.143-0.571-4.857-2t-6.571-2.571-3.429-2.286q-1.714-2.286 0-8t-1.143-8q-2.857 2.857-5.143 10t-4 9.429q4-5.143-14.286-3.429l-5.714 0.571q-2.286 0-9.143-1.143t-11.714-0.571-7.714 4.571q-2.286 4.571 0 11.429 0.571 2.286 2.286 1.143-2.286 1.714-6.286 5.429t-5.714 4.857q-26.286-8.571-53.714-23.429 3.429-0.571 6.857 0.571 2.857 1.143 7.429 3.714t5.714 3.143q19.429 8 24 4l2.857 2.857q8-9.143 11.429-14.286-4 2.286-17.143 0.571-11.429-3.429-12.571-6.857 4-6.857 2.857-10.286-2.286 1.714-6.571 5.714t-8.286 6.286-8.571 2.857q-9.143 0-12.571-0.571-83.429-45.714-134.286-126.857zM501.143 88q0-3.429 1.143-9.143 117.714 20.571 200.571 108-1.714 1.714-7.143 2.571t-7.143 2q-10.286 4-13.714 4.571 0.571 4-1.429 7.429t-4.571 5.143-7.143 4.571-6.286 4q-1.143 1.143-4 3.429t-4 3.143-4.286 2.571-4.857 1.143-5.714-0.571l-1.714-0.571q-1.714-0.571-3.143-1.429t-3.143-1.714-2.286-1.714 0-1.429q-12 9.714-20.571 12.571-2.857 0.571-6.286 3.143t-6 4-5.714 0.857-6.571-4q-2.857-2.857-3.429-8.571t-1.143-7.429q-4 2.857 0 10t1.143 10.571q-1.714 3.429-6 2.571t-6.857-2.571-6.571-4.857-5.143-3.714-4.857-3.143-4.857-4.286q-1.714-2.286-3.429-6.857t-2.857-6.286q-1.143 2.286-6.571 3.714t-5.429 3.143q1.143-5.714 2.286-20t2.857-21.714q4-17.714-6.857-27.429-15.429-14.286-16.571-22.857-2.286-12.571 6.857-14.857 0-4-4.571-11.714t-4-12.286z" />
<glyph unicode="&#xe625;" d="M0 456.571q0 201.714 70.857 201.714 3.429 0 24.857-12t55.714-24.286 68-12.286q38.286 0 76 13.143-2.857-21.143-2.857-37.714 0-79.429 46.286-146.286-92.571-2.857-151.429-73.143h-76.571q-46.857 0-78.857 23.143t-32 67.714zM73.143 804.571q0 60.571 42.857 103.429t103.429 42.857 103.429-42.857 42.857-103.429-42.857-103.429-103.429-42.857-103.429 42.857-42.857 103.429zM146.286 74.857q0 30.286 2 59.143t8 62.286 15.143 62 24.571 55.714 35.429 46.286 48.857 30.571 63.714 11.429q5.714 0 24.571-12.286t41.714-27.429 61.143-27.429 77.143-12.286 77.143 12.286 61.143 27.429 41.714 27.429 24.571 12.286q34.857 0 63.714-11.429t48.857-30.571 35.429-46.286 24.571-55.714 15.143-62 8-62.286 2-59.143q0-68.571-41.714-108.286t-110.857-39.714h-499.429q-69.143 0-110.857 39.714t-41.714 108.286zM329.143 585.143q0 90.857 64.286 155.143t155.143 64.286 155.143-64.286 64.286-155.143-64.286-155.143-155.143-64.286-155.143 64.286-64.286 155.143zM731.429 804.571q0 60.571 42.857 103.429t103.429 42.857 103.429-42.857 42.857-103.429-42.857-103.429-103.429-42.857-103.429 42.857-42.857 103.429zM758.286 438.857q46.286 66.857 46.286 146.286 0 16.571-2.857 37.714 37.714-13.143 76-13.143 33.714 0 68 12.286t55.714 24.286 24.857 12q70.857 0 70.857-201.714 0-44.571-32-67.714t-78.857-23.143h-76.571q-58.857 70.286-151.429 73.143z" horiz-adv-x="1097" />
<glyph unicode="&#xe626;" d="M9.143 694.857q0 68.571 48.571 116l84 83.429q47.429 47.429 116 47.429 69.143 0 116.571-48.571l117.714-118.286q47.429-47.429 47.429-116 0-70.286-50.286-119.429l50.286-50.286q49.143 50.286 118.857 50.286 68.571 0 116.571-48l118.857-118.857q48-48 48-116.571t-48.571-116l-84-83.429q-47.429-47.429-116-47.429-69.143 0-116.571 48.571l-117.714 118.286q-47.429 47.429-47.429 116 0 70.286 50.286 119.429l-50.286 50.286q-49.143-50.286-118.857-50.286-68.571 0-116.571 48l-118.857 118.857q-48 48-48 116.571zM118.857 694.857q0-22.857 16-38.857l118.857-118.857q15.429-15.429 38.857-15.429 24 0 41.143 17.714-1.714 1.714-10.857 10.571t-12.286 12.286-8.571 10.857-7.429 14.571-2 15.714q0 22.857 16 38.857t38.857 16q8.571 0 15.714-2t14.571-7.429 10.857-8.571 12.286-12.286 10.571-10.857q18.857 17.714 18.857 41.714 0 22.857-16 38.857l-117.714 118.286q-16 16-38.857 16-22.286 0-38.857-15.429l-84-83.429q-16-16-16-38.286zM520.571 292q0-22.857 16-38.857l117.714-118.286q15.429-15.429 38.857-15.429 22.857 0 38.857 14.857l84 83.429q16 16 16 38.286 0 22.857-16 38.857l-118.857 118.857q-16 16-38.857 16-24 0-41.143-18.286 1.714-1.714 10.857-10.571t12.286-12.286 8.571-10.857 7.429-14.571 2-15.714q0-22.857-16-38.857t-38.857-16q-8.571 0-15.714 2t-14.571 7.429-10.857 8.571-12.286 12.286-10.571 10.857q-18.857-17.714-18.857-41.714z" horiz-adv-x="951" />
<glyph unicode="&#xe627;" d="M0 109.714v73.143q0 14.857 10.857 25.714t25.714 10.857h804.571q14.857 0 25.714-10.857t10.857-25.714v-73.143q0-14.857-10.857-25.714t-25.714-10.857h-804.571q-14.857 0-25.714 10.857t-10.857 25.714zM0 402.286v73.143q0 14.857 10.857 25.714t25.714 10.857h804.571q14.857 0 25.714-10.857t10.857-25.714v-73.143q0-14.857-10.857-25.714t-25.714-10.857h-804.571q-14.857 0-25.714 10.857t-10.857 25.714zM0 694.857v73.143q0 14.857 10.857 25.714t25.714 10.857h804.571q14.857 0 25.714-10.857t10.857-25.714v-73.143q0-14.857-10.857-25.714t-25.714-10.857h-804.571q-14.857 0-25.714 10.857t-10.857 25.714z" />
<glyph unicode="&#xe628;" d="M0 438.857q0 119.429 58.857 220.286t159.714 159.714 220.286 58.857 220.286-58.857 159.714-159.714 58.857-220.286-58.857-220.286-159.714-159.714-220.286-58.857q-63.429 0-124.571 18.286 33.714 53.143 44.571 93.714 5.143 19.429 30.857 120.571 11.429-22.286 41.714-38.571t65.143-16.286q69.143 0 123.429 39.143t84 107.714 29.714 154.286q0 65.143-34 122.286t-98.571 93.143-145.714 36q-60 0-112-16.571t-88.286-44-62.286-63.143-38.286-74-12.286-76.571q0-59.429 22.857-104.571t66.857-63.429q17.143-6.857 21.714 11.429 1.143 4 4.571 17.714t4.571 17.143q3.429 13.143-6.286 24.571-29.143 34.857-29.143 86.286 0 86.286 59.714 148.286t156.286 62q86.286 0 134.571-46.857t48.286-121.714q0-97.143-39.143-165.143t-100.286-68q-34.857 0-56 24.857t-13.143 59.714q4.571 20 15.143 53.429t17.143 58.857 6.571 43.143q0 28.571-15.429 47.429t-44 18.857q-35.429 0-60-32.571t-24.571-81.143q0-41.714 14.286-69.714l-56.571-238.857q-9.714-40-7.429-101.143-117.714 52-190.286 160.571t-72.571 241.714z" />
<glyph unicode="&#xe629;" d="M18.286 177.143q0 46.286 25.429 85.714t67.714 65.714q74.857 46.857 230.857 57.143-18.286 24-27.143 42.286t-8.857 41.714q0 20.571 12 48.571-26.286-2.286-38.857-2.286-84.571 0-142.571 55.143t-58 139.714q0 46.857 20.571 90.857t56.571 74.857q44 37.714 104.286 56t124.286 18.286h238.857l-78.857-50.286h-74.857q42.286-36 64-76t21.714-91.429q0-41.143-14-74t-33.714-53.143-39.714-37.143-34-35.143-14-37.714q0-20.571 18.286-40.286t44.286-38.857 51.714-42 44-59.429 18.286-81.143q0-51.429-27.429-98.857-41.143-69.714-120.571-102.571t-170.286-32.857q-75.429 0-140.857 23.714t-98 78.571q-21.143 34.286-21.143 74.857zM124.571 203.428q0-40 20-70.571t52.286-47.429 68-25.143 72.857-8.286q33.143 0 63.714 7.429t56.571 22.286 41.714 41.714 15.714 62.286q0 14.286-4 28t-8.286 24-15.429 23.714-16.857 20-22 19.714-20.857 16.571-23.714 17.143-20.857 14.857q-9.143 1.143-27.429 1.143-30.286 0-60-4t-61.429-14.286-55.429-26.286-39.143-42.571-15.429-60.286zM185.143 771.428q0-26.286 5.714-55.714t18-58.857 29.714-52.857 42.857-38.286 55.143-14.857q21.714 0 44.571 9.429t37.714 24.857q30.286 32.571 30.286 90.857 0 33.143-9.714 71.429t-27.714 74-48.286 59.143-66.857 23.429q-24 0-47.143-11.143t-37.429-30q-26.857-33.714-26.857-91.429zM619.429 490.857v61.714h121.143v124h60v-124h121.714v-61.714h-121.714v-125.143h-60v125.143h-121.143z" horiz-adv-x="951" />
<glyph unicode="&#xe62a;" d="M0 91.428v453.714q25.143-28 57.714-49.714 206.857-140.571 284-197.143 32.571-24 52.857-37.429t54-27.429 62.857-14h1.143q29.143 0 62.857 14t54 27.429 52.857 37.429q97.143 70.286 284.571 197.143 32.571 22.286 57.143 49.714v-453.714q0-37.714-26.857-64.571t-64.571-26.857h-841.143q-37.714 0-64.571 26.857t-26.857 64.571zM0 700.571q0 44.571 23.714 74.286t67.714 29.714h841.143q37.143 0 64.286-26.857t27.143-64.571q0-45.143-28-86.286t-69.714-70.286q-214.857-149.143-267.429-185.714-5.714-4-24.286-17.429t-30.857-21.714-29.714-18.571-32.857-15.429-28.571-5.143h-1.143q-13.143 0-28.571 5.143t-32.857 15.429-29.714 18.571-30.857 21.714-24.286 17.429q-52 36.571-149.714 104.286t-117.143 81.429q-35.429 24-66.857 66t-31.429 78z" />
<glyph unicode="&#xe62b;" d="M0 768.571q0 42.286 29.429 70t76.857 27.714 76-27.714 29.143-70q0.571-41.714-28.857-69.714t-77.429-28h-1.143q-46.857 0-75.429 28t-28.571 69.714zM10.857 27.428v566.286h188.571v-566.286h-188.571zM303.429 27.428q1.143 228 1.143 369.714t-0.571 169.143l-0.571 27.429h188v-82.286h-1.143q11.429 18.286 23.429 32t32.286 29.714 49.714 24.857 65.429 8.857q97.714 0 157.143-64.857t59.429-190v-324.571h-188v302.857q0 60-23.143 94t-72.286 34q-36 0-60.286-19.714t-36.286-48.857q-6.286-17.143-6.286-46.286v-316h-188z" />
<glyph unicode="&#xe62c;" d="M0-18.286v914.286q0 22.857 16 38.857t38.857 16h512q22.857 0 50.286-11.429t43.429-27.429l178.286-178.286q16-16 27.429-43.429t11.429-50.286v-658.286q0-22.857-16-38.857t-38.857-16h-768q-22.857 0-38.857 16t-16 38.857zM73.143 0h731.429v585.143h-237.714q-22.857 0-38.857 16t-16 38.857v237.714h-438.857v-877.714zM219.429 164.571v36.571q0 8 5.143 13.143t13.143 5.143h402.286q8 0 13.143-5.143t5.143-13.143v-36.571q0-8-5.143-13.143t-13.143-5.143h-402.286q-8 0-13.143 5.143t-5.143 13.143zM219.429 310.857v36.571q0 8 5.143 13.143t13.143 5.143h402.286q8 0 13.143-5.143t5.143-13.143v-36.571q0-8-5.143-13.143t-13.143-5.143h-402.286q-8 0-13.143 5.143t-5.143 13.143zM219.429 457.143v36.571q0 8 5.143 13.143t13.143 5.143h402.286q8 0 13.143-5.143t5.143-13.143v-36.571q0-8-5.143-13.143t-13.143-5.143h-402.286q-8 0-13.143 5.143t-5.143 13.143zM585.143 658.286h214.857q-5.714 16.571-12.571 23.429l-178.857 178.857q-6.857 6.857-23.429 12.571v-214.857z" />
<glyph unicode="&#xe62d;" d="M44 201.143q0 7.429 5.714 13.143l266.286 266.286q5.714 5.714 13.143 5.714t13.143-5.714l266.286-266.286q5.714-5.714 5.714-13.143t-5.714-13.143l-28.571-28.571q-5.714-5.714-13.143-5.714t-13.143 5.714l-224.571 224.571-224.571-224.571q-5.714-5.714-13.143-5.714t-13.143 5.714l-28.571 28.571q-5.714 5.714-5.714 13.143zM44 420.571q0 7.429 5.714 13.143l266.286 266.286q5.714 5.714 13.143 5.714t13.143-5.714l266.286-266.286q5.714-5.714 5.714-13.143t-5.714-13.143l-28.571-28.571q-5.714-5.714-13.143-5.714t-13.143 5.714l-224.571 224.571-224.571-224.571q-5.714-5.714-13.143-5.714t-13.143 5.714l-28.571 28.571q-5.714 5.714-5.714 13.143z" horiz-adv-x="658" />
<glyph unicode="&#xe62e;" d="M0 146.286v585.143q0 29.714 21.714 51.429t51.429 21.714h292.571q29.714 0 51.429-21.714t21.714-51.429v-585.143q0-29.714-21.714-51.429t-51.429-21.714h-292.571q-29.714 0-51.429 21.714t-21.714 51.429zM54.857 237.714q0-7.429 5.429-12.857t12.857-5.429h292.571q7.429 0 12.857 5.429t5.429 12.857v402.286q0 7.429-5.429 12.857t-12.857 5.429h-292.571q-7.429 0-12.857-5.429t-5.429-12.857v-402.286zM164.571 722.286q0-9.143 9.143-9.143h91.429q9.143 0 9.143 9.143t-9.143 9.143h-91.429q-9.143 0-9.143-9.143zM173.714 146.286q0-18.857 13.429-32.286t32.286-13.429 32.286 13.429 13.429 32.286-13.429 32.286-32.286 13.429-32.286-13.429-13.429-32.286z" horiz-adv-x="439" />
<glyph unicode="&#xe62f;" d="M0 438.857q0 119.429 58.857 220.286t159.714 159.714 220.286 58.857 220.286-58.857 159.714-159.714 58.857-220.286-58.857-220.286-159.714-159.714-220.286-58.857-220.286 58.857-159.714 159.714-58.857 220.286z" />
<glyph unicode="&#xe630;" d="M15.429 221.714q0 133.714 14.857 200 8 33.714 33.143 56.571t58.857 26.857q104.571 11.429 316.571 11.429t317.143-11.429q33.143-4 58.571-26.857t32.857-56.571q14.857-64 14.857-200 0-133.714-14.857-200-8-33.714-33.143-56.571t-58.286-26.286q-105.143-12-317.143-12t-317.143 12q-33.143 3.429-58.571 26.286t-32.857 56.571q-14.857 64-14.857 200zM78.857 364h60v-325.143h57.143v325.143h61.143v53.714h-178.286v-53.714zM152 950.857h60.571l40.571-150.286 38.857 150.286h58.286l-69.143-228v-154.857h-57.143v154.857q-8 42.286-34.857 121.143-21.143 58.857-37.143 106.857zM264.571 97.714q0-28 4.571-41.714 6.857-21.143 33.143-21.143 27.429 0 58.286 34.857v-30.857h50.857v282.286h-50.857v-216q-17.143-24-32.571-24-10.286 0-12 12-0.571 1.714-0.571 20v208h-50.857v-223.429zM350.857 660.571v100q0 45.714 16 66.857 21.714 29.143 60 29.143 39.429 0 60.571-29.143 16-21.143 16-66.857v-100q0-46.286-16-67.429-21.143-29.143-60.571-29.143-38.286 0-60 29.143-16 21.714-16 67.429zM402.286 650.857q0-40 24.571-40t24.571 40v120q0 39.429-24.571 39.429t-24.571-39.429v-120zM456 38.857h50.857v27.429q25.714-31.429 53.143-31.429 30.857 0 40.571 31.429 5.143 15.429 5.143 57.143v112.571q0 41.714-5.143 56.571-9.714 32-40.571 32-28.571 0-53.143-30.857v124h-50.857v-378.857zM506.857 93.714v172q12.571 12.571 25.714 12.571 22.286 0 22.286-38.286v-120.571q0-38.286-22.286-38.286-13.143 0-25.714 12.571zM545.714 628v225.143h52v-209.714q0-18.857 0.571-20 1.714-12.571 12-12.571 15.429 0 32.571 24.571v217.714h52v-285.143h-52v31.429q-30.286-35.429-58.857-35.429-26.286 0-33.714 21.143-4.571 13.714-4.571 42.857zM645.714 130.286q0-45.143 16.571-66.286 22.286-29.143 61.714-29.143 41.143 0 61.714 30.286 10.286 15.429 12 30.857 1.143 5.143 1.143 33.143v7.429h-52q0-29.143-1.143-34.857-4-20.571-22.857-20.571-26.286 0-26.286 39.429v49.714h102.286v58.857q0 45.143-15.429 66.286-22.286 29.143-60.571 29.143-38.857 0-61.143-29.143-16-21.143-16-66.286v-98.857zM696.571 213.143v26.286q0 38.857 25.714 38.857t25.714-38.857v-26.286h-51.429z" />
<glyph unicode="&#xe631;" d="M0 438.857q0 54.857 0.571 85.714t4.857 78 12.857 84.286q9.143 41.714 39.429 70.286t70.857 33.143q126.857 14.286 383.429 14.286t383.429-14.286q40.571-4.571 71.143-33.143t39.714-70.286q8-37.143 12.286-84.286t4.857-78 0.571-85.714-0.571-85.714-4.857-78-12.857-84.286q-9.143-41.714-39.429-70.286t-70.857-33.143q-126.857-14.286-383.429-14.286t-383.429 14.286q-40.571 4.571-71.143 33.143t-39.714 70.286q-8 37.143-12.286 84.286t-4.857 78-0.571 85.714zM365.714 256q0-21.714 18.857-32 9.143-4.571 17.714-4.571 11.429 0 19.429 5.714l292.571 182.857q17.143 9.714 17.143 30.857t-17.143 30.857l-292.571 182.857q-17.714 11.429-37.143 1.143-18.857-10.286-18.857-32v-365.714z" />
<glyph unicode="&#xe632;" d="M36.571 392l193.143 154.857 282.286-174.286-195.429-162.857zM36.571 701.143l280 182.286 195.429-162.857-282.286-173.714zM232.571 168v61.714l84-54.857 195.429 162.286v1.143l0.571-0.571 0.571 0.571v-1.143l196-162.286 84 54.857v-61.714l-280-167.429v-0.571l-0.571 0.571-0.571-0.571v0.571zM512 372.571l282.286 174.286 193.143-154.857-279.429-182.286zM512 720.571l196 162.857 279.429-182.286-193.143-154.286z" />
<glyph unicode="&#xe633;" d="M0 112.571v652.571q0 46.286 33.143 79.429t79.429 33.143h652.571q46.286 0 79.429-33.143t33.143-79.429v-652.571q0-46.286-33.143-79.429t-79.429-33.143h-652.571q-46.286 0-79.429 33.143t-33.143 79.429zM97.714 136q0-14.857 10-24.857t24.857-10h610.857q14.286 0 24.571 10t10.286 24.857v370.286h-77.143q11.429-36 11.429-74.857 0-72-36.571-132.857t-99.429-96.286-137.143-35.429q-112.571 0-192.571 77.429t-80 187.143q0 38.857 11.429 74.857h-80.571v-370.286zM263.429 440.571q0-70.857 51.714-120.857t124.286-50q73.143 0 124.857 50t51.714 120.857-51.714 120.857-124.857 50q-72.571 0-124.286-50t-51.714-120.857zM600 646.286q0-16.571 11.429-28t28-11.429h99.429q16.571 0 28 11.429t11.429 28v94.286q0 16-11.429 27.714t-28 11.714h-99.429q-16.571 0-28-11.714t-11.429-27.714v-94.286z" />
<glyph unicode="&#xe634;" d="M0 164.571v548.571q0 68 48.286 116.286t116.286 48.286h548.571q68 0 116.286-48.286t48.286-116.286v-548.571q0-68-48.286-116.286t-116.286-48.286h-548.571q-68 0-116.286 48.286t-48.286 116.286zM156.571 438.857q0-50.286 35.429-85.714t85.714-35.429 85.714 35.429 35.429 85.714-35.429 85.714-85.714 35.429-85.714-35.429-35.429-85.714zM478.857 438.857q0-50.286 35.429-85.714t85.714-35.429 85.714 35.429 35.429 85.714-35.429 85.714-85.714 35.429-85.714-35.429-35.429-85.714z" />
<glyph unicode="&#xe635;" d="M0 438.857q0 119.429 58.857 220.286t159.714 159.714 220.286 58.857 220.286-58.857 159.714-159.714 58.857-220.286-58.857-220.286-159.714-159.714-220.286-58.857-220.286 58.857-159.714 159.714-58.857 220.286zM64 438.857q0-70.857 25.143-135.143t70.857-115.143q28.571 50.857 70.571 95.143t81.429 71.143 74.571 46.286 56.857 27.429l21.143 7.429q2.286 0.571 7.429 2t7.429 2.571q-12 28-30.286 63.429-177.714-53.143-384.571-53.143-0.571-4-0.571-12zM72 516q172.571 0 346.286 45.714-68.571 121.714-139.429 216-78.857-37.143-133.714-106.286t-73.143-155.429zM200 149.714q105.143-85.714 238.857-85.714 75.429 0 146.286 29.714-24 137.714-80 284.571h-1.143l-1.143-0.571q-9.143-3.429-24.571-9.429t-57.714-28-78.286-46.857-74.857-65.429-58.857-84.571zM348 802.286q0.571 0.571 1.143 0.571-0.571 0-1.143-0.571zM350.286 802.857q74.857-97.143 140.571-218.286 39.429 14.857 74.286 34.571t55.143 35.143 37.429 32.571 21.429 23.143l7.143 10q-105.714 93.714-247.429 93.714-43.429 0-88.571-10.857zM519.429 528.571q14.286-30.286 25.143-54.286 1.143-3.429 3.714-10t4.286-9.429q20.571 2.857 42.571 4t42 1.143 39.429-0.857 36.571-2.286 32.286-3.143 27.429-3.714 20.857-3.429 14.286-2.571l5.714-1.143q-1.714 132.571-85.143 234.286l-0.571-0.571q-5.143-6.857-10.857-14t-24.857-25.429-40.571-34.571-57.143-37.143-75.143-36.857zM575.429 396q49.714-136.571 73.143-268 63.429 42.857 105.714 108.286t54.857 143.143q-120 34.286-233.714 16.571z" />
<glyph unicode="&#xe636;" d="M0 658.286q0 90.857 64.286 155.143t155.143 64.286q74.286 0 133.714-45.714 44 9.143 85.714 9.143 81.714 0 156.286-31.714t128.571-85.714 85.714-128.571 31.714-156.286q0-41.714-9.143-85.714 45.714-59.429 45.714-133.714 0-90.857-64.286-155.143t-155.143-64.286q-74.286 0-133.714 45.714-44-9.143-85.714-9.143-81.714 0-156.286 31.714t-128.571 85.714-85.714 128.571-31.714 156.286q0 41.714 9.143 85.714-45.714 59.429-45.714 133.714zM214.857 301.143q0-52.571 69.714-90t166.286-37.429q41.714 0 80 10.571t70 30.571 50.571 53.429 18.857 75.143q0 28.571-11.143 52.286t-27.714 39.143-41.714 28-47.143 19.429-50 13.143l-59.429 13.714q-17.143 4-25.143 6t-20 6.571-17.143 9.143-9.429 12-4.286 17.143q0 44 82.286 44 24.571 0 44-6.857t30.857-16.286 21.714-19.143 22.857-16.571 27.429-6.857q26.857 0 43.143 18.286t16.286 44q0 31.429-32 56.857t-81.143 38.571-104 13.143q-38.857 0-75.429-8.857t-68.286-26.857-50.857-49.714-19.143-73.429q0-34.857 10.857-60.857t32-43.143 45.714-27.714 58.857-18.571l83.429-20.571q51.429-12.571 64-20.571 18.286-11.429 18.286-34.286 0-22.286-22.857-36.857t-60-14.571q-29.143 0-52.286 9.143t-37.143 22-26 25.714-26.286 22-30.857 9.143q-28.571 0-43.143-17.143t-14.571-42.857z" />
<glyph unicode="&#xe637;" d="M0 438.857q0 119.429 58.857 220.286t159.714 159.714 220.286 58.857 220.286-58.857 159.714-159.714 58.857-220.286-58.857-220.286-159.714-159.714-220.286-58.857-220.286 58.857-159.714 159.714-58.857 220.286zM128 438.857q0-84.571 41.714-156t113.143-113.143 156-41.714 156 41.714 113.143 113.143 41.714 156-41.714 156-113.143 113.143-156 41.714-156-41.714-113.143-113.143-41.714-156zM219.429 384v109.714q0 7.429 5.429 12.857t12.857 5.429h201.143v109.714q0 8 5.143 13.143t13.143 5.143q6.857 0 13.714-5.714l182.286-182.286q5.143-5.143 5.143-13.143t-5.143-13.143l-182.857-182.857q-5.143-5.143-13.143-5.143-7.429 0-12.857 5.429t-5.429 12.857v109.714h-201.143q-7.429 0-12.857 5.429t-5.429 12.857z" />
<glyph unicode="&#xe638;" d="M0 164.571v548.571q0 68 48.286 116.286t116.286 48.286h548.571q68 0 116.286-48.286t48.286-116.286v-548.571q0-68-48.286-116.286t-116.286-48.286h-548.571q-68 0-116.286 48.286t-48.286 116.286zM73.143 533.714q9.143-4.571 14.571-14.857t12.286-11.429q12-1.714 31.143 4.857t33.143 6 23.714-17.143q6.286-10.286 10.571-22t8.571-27.429 7.143-23.143q9.714-26.286 30.286-106.857 20.571-83.429 32.571-112.571 24-56.571 58.857-71.429 24.571-6.857 48.571-0.857t43.429 18q74.857 44 142.857 135.429 59.429 79.429 98.571 167.143t47.143 129.429q9.143 48.571-12 75.429-29.714 37.143-106.857 25.714-9.714-1.714-23.429-7.143t-32.857-17.429-36.857-27.714-34-40-25.429-52.286q45.714 4 64.857-9.143t15.143-56.571q-2.857-29.714-29.714-81.714-24.571-44.571-40.571-56.571-25.143-18.286-49.714 8-13.143 13.714-21.429 36.857t-10.857 41.714-5.714 48-4.857 40.857q-13.143 73.714-19.429 93.714-6.857 21.143-20.286 39.429t-28.857 22.857q-32.571 9.143-72.571-14.286-30.857-18.286-78-60.571t-70-58.286v-4z" />
<glyph unicode="&#xe639;" d="M0 265.143v152h187.429v-149.714q0-24.571 17.143-41.429t41.143-16.857 41.143 16.857 17.143 41.429v354.286q0 97.714 72.286 166.857t172.286 69.143q100.571 0 172.571-69.714t72-168v-77.714l-111.429-33.143-74.857 34.857v67.429q0 24-17.143 41.143t-41.143 17.143-41.143-17.143-17.143-41.143v-349.714q0-100-72-170.857t-173.143-70.857q-101.714 0-173.429 71.714t-71.714 173.429zM606.857 262.857v153.143l74.857-34.857 111.429 33.143v-154.286q0-24 17.143-40.857t41.143-16.857 41.143 16.857 17.143 40.857v157.143h187.429v-152q0-101.714-71.714-173.429t-173.429-71.714q-101.143 0-173.143 71.143t-72 171.714z" horiz-adv-x="1097" />
<glyph unicode="&#xe63a;" d="M0 164.571v548.571q0 68 48.286 116.286t116.286 48.286h548.571q68 0 116.286-48.286t48.286-116.286v-548.571q0-68-48.286-116.286t-116.286-48.286h-548.571q-68 0-116.286 48.286t-48.286 116.286zM36.571 438.857h402.286v-402.286h274.286q53.143 0 90.571 37.429t37.429 90.571v274.286h-402.286v402.286h-274.286q-53.143 0-90.571-37.429t-37.429-90.571v-274.286z" />
<glyph unicode="&#xe63b;" d="M0 228v398.286h187.429v163.429h116.571v-561.714h-304zM117.143 321.714h70.286v210.857h-70.286v-210.857zM350.857 228h117.143v398.286h-117.143v-398.286zM350.857 673.143h117.143v116.571h-117.143v-116.571zM514.857 88v93.143h187.429v46.857h-187.429v398.286h304.571v-538.286h-304.571zM632 321.714h70.286v210.857h-70.286v-210.857zM866.286 88v93.143h186.857v46.857h-186.857v398.286h304v-538.286h-304zM982.857 321.714h70.286v210.857h-70.286v-210.857z" horiz-adv-x="1170" />
<glyph unicode="&#xe63c;" d="M0 85.714v720h339.429q49.714 0 88.571-8t72.286-27.143 51.429-55.143 18-88q0-103.429-98.286-150.286 65.143-18.286 98.286-65.714t33.143-116.571q0-42.857-14-78t-37.714-59.143-56.286-40.571-69.143-24-76.571-7.429h-349.143zM158.286 208h169.143q117.143 0 117.143 95.429 0 102.857-113.714 102.857h-172.571v-198.286zM158.286 514.857h160.571q44.571 0 70.571 20.857t26 64.857q0 82.286-108.571 82.286h-148.571v-168zM649.714 345.714q0 118.857 74.571 197.429t192.286 78.571q78.857 0 137.429-38.857t87.429-102.286 28.857-141.714q0-9.714-1.143-26.857h-376q0-63.429 32.857-98t95.143-34.571q36 0 69.714 18.286t43.429 49.714h126.286q-57.143-175.429-244-175.429-122.286 0-194.571 75.429t-72.286 198.286zM764 686.286h292v70.857h-292v-70.857zM793.143 402.286h233.143q-10.286 111.429-114.286 111.429-51.429 0-83.429-30t-35.429-81.429z" horiz-adv-x="1170" />
<glyph unicode="&#xe63d;" d="M0 304.571l9.714 73.143q1.143 5.143 5.143 5.143t5.143-5.143l11.429-73.143-11.429-72q-1.143-5.143-5.143-5.143t-5.143 5.143zM45.143 304.571l13.143 118.286q0 5.143 5.143 5.143 4.571 0 5.714-5.143l14.857-118.286-14.857-116q-1.143-5.143-5.714-5.143-5.143 0-5.143 5.714zM96.571 304.571l12 140q1.143 6.857 6.857 6.857 6.286 0 6.286-6.857l14.286-140-14.286-135.429q0-6.286-6.286-6.286-5.714 0-6.857 6.286zM148 304.571l12 144q0 7.429 7.429 7.429 6.857 0 8-7.429l13.143-144-13.143-139.429q-1.143-7.429-8-7.429-7.429 0-7.429 7.429zM200 304.571l11.429 133.714q0 3.429 2.571 6t6 2.571q8 0 9.143-8.571l12-133.714-12-140.571q-1.143-9.143-9.143-9.143-3.429 0-6 2.571t-2.571 6.571zM252.571 304.571l10.286 217.143q1.143 10.286 10.286 10.286 4 0 6.857-3.143t2.857-7.143l12-217.143-12-140.571q0-4-2.857-7.143t-6.857-3.143q-9.143 0-10.286 10.286zM305.143 303.428l9.143 267.429q1.143 10.857 11.429 10.857 4.571 0 7.714-3.143t3.143-7.714l10.857-267.429-10.857-139.429q0-4.571-3.143-7.714t-7.714-3.143q-10.286 0-11.429 10.857zM358.857 304.571l9.143 289.143q0 5.143 3.714 8.857t8.286 3.714q5.143 0 8.571-3.714t4-8.857l10.286-289.143-10.286-138.286q-1.143-12-12.571-12-10.857 0-12 12zM413.143 304.571l8-137.714q0.571-5.714 4.286-9.429t8.857-3.714q12.571 0 13.714 13.143l9.143 137.714-9.143 298.857q-0.571 5.714-4.286 9.714t-9.429 4q-5.143 0-9.143-4t-4-9.714zM466.857 304.571l8 291.429q0 6.286 4.286 10.286t10 4 10-4 4.286-10.286l8.571-291.429-8.571-136.571q0-5.714-4.286-10t-10-4.286-9.714 4-4.571 10.286zM521.714 304l6.857 281.143q0.571 6.857 5.143 11.429t10.857 4.571 10.571-4.571 4.857-11.429l8-281.143-8-134.857q0-6.286-4.571-10.857t-10.857-4.571-10.857 4.571-5.143 10.857zM577.143 304.571q0-0.571 6.286-134.857v-0.571q0-5.714 3.429-9.714 5.143-6.286 13.143-6.286 6.286 0 11.429 5.143 5.143 4 5.143 11.429l0.571 13.714 6.286 120.571-6.857 334.857q0 9.143-7.429 13.714-4.571 2.857-9.143 2.857t-9.143-2.857q-7.429-4.571-7.429-13.714l-0.571-3.429zM630.286 304l6.857 363.429v1.714q1.143 8.571 6.857 13.714 5.143 4 11.429 4 4.571 0 8.571-2.857 8-4.571 9.143-14.857l8-365.143-8-132q0-7.429-5.143-12.571t-12.571-5.143-12.571 5.143-5.714 12.571l-3.429 65.143zM688 172.571v513.714q0 13.143 16 18.857 48.571 19.429 103.429 19.429 111.429 0 193.143-75.143t91.429-184.857q30.286 12.571 62.857 12.571 66.857 0 114.286-47.429t47.429-114.857q0-66.857-47.429-114t-114.286-47.143h-449.143q-7.429 1.143-12.571 6.286t-5.143 12.571z" horiz-adv-x="1317" />
<glyph unicode="&#xe63e;" d="M0 581.143q0 21.143 32 26.286l286.857 41.714 128.571 260q10.857 23.429 28 23.429t28-23.429l128.571-260 286.857-41.714q32-5.143 32-26.286 0-12.571-14.857-27.429l-207.429-202.286 49.143-285.714q0.571-4 0.571-11.429 0-12-6-20.286t-17.429-8.286q-10.857 0-22.857 6.857l-256.571 134.857-256.571-134.857q-12.571-6.857-22.857-6.857-12 0-18 8.286t-6 20.286q0 3.429 1.143 11.429l49.143 285.714-208 202.286q-14.286 15.429-14.286 27.429z" horiz-adv-x="951" />
<glyph unicode="&#xe63f;" d="M0 581.143q0 21.143 32 26.286l286.857 41.714 128.571 260q10.857 23.429 28 23.429t28-23.429l128.571-260 286.857-41.714q32-5.143 32-26.286 0-12.571-14.857-27.429l-207.429-202.286 49.143-285.714q0.571-4 0.571-11.429 0-28.571-23.429-28.571-10.857 0-22.857 6.857l-256.571 134.857-256.571-134.857q-12.571-6.857-22.857-6.857-12 0-18 8.286t-6 20.286q0 3.429 1.143 11.429l49.143 285.714-208 202.286q-14.286 15.429-14.286 27.429zM126.286 546.857l174.857-169.714-41.714-240.571 216 113.714 215.429-113.714-41.143 240.571 174.857 169.714-241.143 35.429-108 218.286-108-218.286z" horiz-adv-x="951" />
</font>
</defs>
</svg>
